Join Today
Results 1 to 2 of 2
  1. #1
    I got Banned :/ Elite Member shtriumph's Avatar
    Join Date
    Sep 2013
    Location
    MechoDownloads
    Posts
    903
    Like this Post
    0
    Liked 0 Times in 0 Posts

    Chastity Bites (2013) HDTV XviD-WAR



    =
    Chastity Bites (2013) HDTV XviD-WAR
    File Size: 698 MiB

    =

    Chastity Bites (2013) HDTV XviD-WAR

    Title: Chastity Bites
    Year: 2013
    Genre: Comedy, Horror
    Rating: 8.1 (39 votes)
    Runtime: N/A
    Director: John V. Knowles
    Cast: Allison Scagliotti, Francia Raisa, Louise Griffiths, Eduardo Rioseco
    Plot:
    Code: 
    In the early 1600's, Countess Elizabeth Bathory slaughtered more than 600 young women, believing if...
    General
    Complete name : Chastity.Bites.2013.HDTV.XviD-WAR\wcbites.avi
    Format : AVI
    Format/Info : Audio Video Interleave
    File size : 698 MiB
    Duration : 1h 32mn
    Overall bit rate : 1 052 Kbps
    Writing application : VirtualDubMod 1.6.0.0 SURROUND (build 2560/release)
    Writing library : VirtualDubMod build 2560/release

    Video
    ID : 0
    Format : MPEG-4 Visual
    Format profile : Advanced Simple@L5
    Format settings, BVOP : 2
    Format settings, QPel : No
    Format settings, GMC : No warppoints
    Format settings, Matrix : Default (H.263)
    Codec ID : XVID
    Codec ID/Hint : XviD
    Duration : 1h 32mn
    Bit rate : 914 Kbps
    Width : 624 pixels
    Height : 352 pixels
    Display aspect ratio : 16:9
    Frame rate : 23.976 fps
    Color space : YUV
    Chroma subsampling : 4:2:0
    Bit depth : 8 bits
    Scan type : Progressive
    Compression mode : Lossy
    Bits/(Pixel*Frame) : 0.174
    Stream size : 607 MiB (87%)
    Writing library : XviD 1.2.1 (UTC 2008-12-04)

    Audio
    ID : 1
    Format : MPEG Audio
    Format version : Version 1
    Format profile : Layer 3
    Mode : Joint stereo
    Codec ID : 55
    Codec ID/Hint : MP3
    Duration : 1h 32mn
    Bit rate mode : Constant
    Bit rate : 128 Kbps
    Channel count : 2 channels
    Sampling rate : 48.0 KHz
    Compression mode : Lossy
    Stream size : 84.9 MiB (12%)
    Alignment : Aligned on interleaves
    Interleave, duration : 42 ms (1.00 video frame)
    Interleave, preload duration : 504 ms
    Imdb Url:

    Code: 
    http://www.imdb.com/title/tt2145637/
    Movie Trailer:

    [code=]http://www.youtube.com/watch?v=urN0cxv0Hoo[/code]

    Chastity Bites (2013) HDTV XviD-WAR

    Chastity Bites (2013) HDTV XviD-WAR

    Chastity Bites (2013) HDTV XviD-WAR



    DOWNLOAD SINGL LINKS:

    Code: 
    http://uploaded.net/file/wazeu5gy/wcbites.HDTV.rar
    http://rapidgator.net/file/4fc967c8421cb21bafcb12707afabe46/wcbites.HDTV.rar.html
    http://ryushare.com/tp7vhgtanbok/wcbites.HDTV.rar
    http://lumfile.com/hmkyvn89t7co/wcbites.HDTV.rar.html



  2. #2
    Chief Administrator Administrator brerrabbit's Avatar
    Join Date
    Feb 2007
    Location
    West Coast Canada
    Posts
    7,045
    Like this Post
    6
    Liked 32 Times in 20 Posts
    IMDB rating is 4.5, not 8.1 as mentioned above.


 

Similar Threads

  1. [BRRip] Chastity Bites (2013) HDRip XViD - ETRG
    By conearwalens in forum Blu-Ray, BDRip/BRRip, DVDRip, HDRip
    Replies: 0
    Last Post: November 5th, 2013, 06:42 AM
  2. Chastity Bites (2013) HDRip XViD - ETRG
    By MechoPortal.Com in forum Mecho Portal
    Replies: 0
    Last Post: November 5th, 2013, 04:50 AM
  3. [HDRip] Chastity Bites (2013) HDTV XviD WAR
    By RobertoWarez in forum Blu-Ray, BDRip/BRRip, DVDRip, HDRip
    Replies: 0
    Last Post: November 2nd, 2013, 07:39 AM
  4. [HDRip] Chastity Bites (2013) HDTV
    By Meerakkel in forum Blu-Ray, BDRip/BRRip, DVDRip, HDRip
    Replies: 0
    Last Post: November 1st, 2013, 05:17 PM
  5. Chastity Bites 2013 HDTV x264-SYS
    By scenetube in forum TV Shows & Documentaries
    Replies: 0
    Last Post: November 1st, 2013, 04:48 PM

Posting Permissions

  • You may not post new threads
  • You may not post replies
  • You may not post attachments
  • You may not edit your posts
  •  
BACK TO TOP